Interestelar IMAX – 4K Ultra HD Dual Áudio

46

DownloadFICHA TÉCNICA

Titulo Original: Interestelar
Gênero: Drama, Aventura, Ficção
Duração: 2h 49 Min.
Tamanho: 61.00 GB
Direção: Christopher Nolan
Qualidade de Audio: 10
Qualidade de Vídeo: 10
Formato: MKV
Qualidade: BluRay 4K 2160p
Resolução: 3840 x 2160
Codec do Vídeo: x265
Codec do Áudio: AC3 5.1 / DTS5.1
Idioma: Português e Inglês
Legenda: Português BR
Nota imdb_31x14: 8.6
Release by: Agrobatalha
Ano do Lançamento: 2014

Sinopse: Após ver a Terra consumindo boa parte de suas reservas naturais, um grupo de astronautas recebe a missão de verificar possíveis planetas para receberem a população mundial, possibilitando a continuação da espécie. Cooper (Matthew McConaughey) é chamado para liderar o grupo e aceita a missão sabendo que pode nunca mais ver os filhos. Ao lado de Brand (Anne Hathaway), Jenkins (Marlon Sanders) e Doyle (Wes Bentley), ele seguirá em busca de uma nova casa. Com o passar dos anos, sua filha Murph (Mackenzie Foy e Jessica Chastain) investirá numa própria jornada para também tentar salvar a população do planeta.

Assistir Trailer

Elenco:
Matthew McConaughey … Cooper
Anne Hathaway … Amelia
Wes Bentley … Doyle
Jessica Chastain … Murph
Matt Damon … Dr. Mann
Mackenzie Foy … Murph
Elyes Gabel
Michael Caine … Professor Brand
Casey Affleck … Tom
Topher Grace … Getty
Ellen Burstyn … Old Murph
John Lithgow … Donald
Collette Wolfe … Ms. Kelly

DOWNLOAD
VERSÃO BLURAY 4K
Uploaded | Uptobox | BRFiles

Contas Turbo

FILMES RELACIONADOS PARA VOCÊ

46 Comentários

  1. Filmaço, vou baixar com certeza ainda mas em 4K deve ficar muito foda.

  2. EXCELENTE pessoal!!!
    Nota 1000 para vcs!

    Baixando…

    HDR está ok?

  3. Muito bom o filme de ficção ja assisti, e gostei mas gostaria de saber se irá ter a continuação pois o protagosnista consegui voltar mas no futuro mas sem a filha do cientista que desvenvendou tada a equação,
    Em outras palavras estou ancioso se haverá continuação!!!!

  4. Não terá e não leve essas teorias furadas a sério.

  5. Ola, vcs podem posta esse filme em bluray 1080p

  6. ISSO NÃO É UM FILME…É UMA OBRA DE ARTE!!!

  7. Por quê vocês da equipe nunca aceitam meus comentários? sempre elogiei e quis até fazer 1 doação ajudar, mas nunca respondem.

    • qual era a pergunta?

  8. gostaria que tivesse filmes gratuitos

    • todos filmes aqui é gratuito ne

  9. Por favor, minha TV é 4k porém não roda pelo hdmi, o que fazer?

  10. Olá amigo….antes de mais nada parabéns pelo site, sempre espero sair aqui pela qualidade que vcs postam!
    Preciso de uma ajuda, estou com uma tv nova Ku6000 4K da samsung e não consigo enxergar pela rede o formato 4k em MKV. Nos demais funciona tranquilamente…..acha que pode ser alguma incompatibilidade?
    Desde já agradeço….

  11. HDMAN ,

    Tenho uma tv 4k oled lg, so que todos filmes 4k que baixo a imagem não fica boa, ficam granuladas, não ficam 100% limpas,os filmes Remux ficam muito bons,

    Testes feitos no youtube trailers de filmes 4k ficam excelentes , tens alguma sugestacao para oq esta acontecendo para os filmes 4k q baixo não estarem ficando bons.

    Passo eles para um pendrive 3.0, e assisto pelo usb 3.0 da tv.

    Obrigado

  12. FICOU OFF OS LINKS PAREI N O 6

  13. O ARQUIVO PARTE 13 http://uploaded.net NÃO ESTÁ FUNCIONANDO PODERIA POSTAR DENOVO.

  14. As partes sumiram do Uptobox. Por favor quando puderem arrumem lá. Obrigado.

  15. Por gentileza, disponibilizem a parte 11 novamente, estava baixando e ficou OFF em todos os servidores.

  16. Olá Amigo bom dia. Esse filme esta em formato ( 4 k Ultra HD HDR ) ou ( 4k ultra hd hevc ) ????

    • Em HDR.

  17. Poderia upar ou informar o link destes arquivos?
    Não estão mais disponíveis.

    Obrigado.

  18. ola, parte 13 esta off, poderiam arrumar por favor …

  19. link do Uploaded só tem um arquivo. ajeita por favor.

  20. Bom dia, no link do uploaded só aparece a parte 12, onde está o restante? ajuda por favor.

  21. Fiz conta no uploaded so para poder baixar os filmes 4k deste site que e top. Mas agora me deparei com este filme que gostaria muito efetuar o download mas estao faltando os links.
    Por Favor Posta de novo. Obrigado

  22. Links Uploaded Offline

  23. Alguns links no TurboBit estão offline

  24. Poderia up os arquivos novamente, no uploaded?

  25. Só TEM A PARTE 12 NO UPLOADED

  26. por favor upar os arquivos novamente.

  27. Por favor poderia reupar no Uploaded???

  28. Olá boa noite pretendem reupar os links???

  29. Poderiam por favor reupar os links? principalmente no uptobox onde eu já tinha baixado algumas partes…

  30. Olá Hector, vc ainda tem esse super filme? poderia repostar por gentileza?

    • Vo reupar so esperar um pouquinho.

  31. boa noite Hector posta Harry Potter a coleção remux =) obrigado

  32. Olá Hector, muito obrigado por reupar, essa versão é de 30 ou 60 fps?

    • Format : Matroska
      Format version : Version 4 / Version 2
      File size : 61.1 GiB
      Duration : 2 h 49 min
      Overall bit rate : 51.7 Mb/s
      Movie name : TEKNO3D.com-Interstellar.IMAX.4K.HDR.10bit.BT2020.DTS.HD.MA-VISIONPLUSHDR1000
      Encoded date : UTC 2017-06-03 15:11:23
      Writing application : mkvmerge v7.2.0 (‘On Every Street’) 64bit built on Sep 13 2014 19:08:28
      Writing library : libebml v1.3.0 + libmatroska v1.4.1
      Cover : Yes
      Attachments : interstellar4khdrcover.png

      Video
      ID : 1
      Format : HEVC
      Format/Info : High Efficiency Video Coding
      Codec ID : V_MPEGH/ISO/HEVC
      Duration : 2 h 49 min
      Bit rate : 47.7 Mb/s
      Width : 3 840 pixels
      Height : 2 160 pixels
      Display aspect ratio : 16:9
      Frame rate mode : Constant
      Frame rate : 23.976 (24000/1001) FPS
      Bits/(Pixel*Frame) : 0.240
      Stream size : 56.3 GiB (92%)
      Title : TEKNO3D.com-Interstellar.IMAX.4K.HDR.10bit.BT2020.DTS.HD.MA-VISIONPLUSHDR1000
      Default : Yes
      Forced : No

      Audio #1
      ID : 2
      Format : AC-3
      Format/Info : Audio Coding 3
      Format settings, Endianness : Big
      Codec ID : A_AC3
      Duration : 2 h 48 min
      Bit rate mode : Constant
      Bit rate : 384 kb/s
      Channel(s) : 6 channels
      Channel positions : Front: L C R, Side: L R, LFE
      Sampling rate : 48.0 kHz
      Frame rate : 31.250 FPS (1536 spf)
      Bit depth : 16 bits
      Compression mode : Lossy
      Delay relative to video : 2 s 500 ms
      Stream size : 464 MiB (1%)
      Title : Português AC3 5.1@AgroBatalha
      Language : Portuguese
      Service kind : Complete Main
      Default : No
      Forced : No

      Audio #2
      ID : 3
      Format : DTS
      Format/Info : Digital Theater Systems
      Format profile : MA / Core
      Mode : 16
      Format settings, Endianness : Big
      Codec ID : A_DTS
      Duration : 2 h 49 min
      Bit rate mode : Variable / Constant
      Bit rate : 3 693 kb/s / 1 509 kb/s
      Channel(s) : 6 channels
      Channel positions : Front: L C R, Side: L R, LFE
      Sampling rate : 48.0 kHz
      Frame rate : 93.750 FPS (512 spf)
      Bit depth : 24 bits
      Compression mode : Lossless / Lossy
      Stream size : 4.36 GiB (7%)
      Title : DTS-HD Master Audio English
      Language : English
      Default : Yes
      Forced : No

      Text
      ID : 4
      Format : UTF-8
      Codec ID : S_TEXT/UTF8
      Codec ID/Info : UTF-8 Plain Text
      Duration : 2 h 43 min
      Bit rate : 30 b/s
      Count of elements : 2038
      Stream size : 36.3 KiB (0%)
      Title : Português SRT@AgroBatalha
      Language : Portuguese
      Default : Yes
      Forced : No

  33. Olá Hector, vc sabe como posso comprar filmes 4K 60 fps tipo aqueles que postam no Youtube (geralmente só partes), na minha opinião é mais vantagem ter um arquivo Full HD 60 fps do que 4K 30 fps, pois para visão humana não há muita diferença entre 4k 30 fps e Full HD 30 fps, a não ser a diferença gigante do tamanho que sem dúvida o disco rígido sente rsrs, agora se o filme for 4K 3840×2160 à 60 FPS aí sim na minha opinião seria vantagem baixar um filme com 50 GB ou mais pois os vídeos em 60 fps são excelentes.

    • Em 60 FPS acho q ñ saiu nenhum filme ainda, só vai depender das produtoras adotar essa qualidade.

  34. Pois é mas onde os caras encontraram esse trailler pra upar no Youtube, veja que qualidade de imagem https://www.youtube.com/watch?v=uOhSiEPeCcg

    • Deve ser convertido.

  35. O link ainda está off 🙁

  36. ADM,
    Parabéns pelos ótimos filmes!
    OS LINKS UPLOADED estão OFFLINE, poderia postar novamente?
    Desde já grato!

  37. Uptobox estao com problemas tambem. esta fazendo download incompleto. 7.26GB so.
    Tentei 4x. e os link uploaded estao of erro 404

  38. LINKS UPLOADED ESTÃO OFF….
    coloquem novamente por gentileza!

  39. Como faz pra baixar esses arquivos em .rar se o site de download não libera os downloads? como faz pra baixar sem ser premium?

Deixe um comentário